#TITLE:Shampoo Planet;
#SUBTITLE:Ergo Proxy;
#ARTIST:Xaleph;
#TITLETRANSLIT:;
#SUBTITLETRANSLIT:;
#ARTISTTRANSLIT:;
#CREDIT:;
#BANNER:Shampoo Planet-banner.png;
#BACKGROUND:Proxy.png;
#LYRICSPATH:;
#CDTITLE:;
#MUSIC:Xaleph - ShampooPlanet (Ergo Proxy).mp3;
#OFFSET:-0.060;
#SAMPLESTART:100.000;
#SAMPLELENGTH:11.960;
#SELECTABLE:YES;
#BPMS:0.000=159.620;
#STOPS:;
#BGCHANGES:0.000=Ergo=1.000=0=0=1,
99999=-nosongbg-=1.000=0=0=0 // don't automatically add -songbackground-
;
// cache tags:
#FIRSTBEAT:0.000;
#LASTBEAT:379.000;
#SONGFILENAME:Songs/Songfolder/Xaleph - ShampooPlanet (Ergo Proxy)/Xaleph - ShampooPlanet (Ergo Proxy).sm;
#HASMUSIC:1;
#HASBANNER:1;
#MUSICLENGTH:150.047;
// end cache tags

//---------------dance-single - Copied from----------------
#NOTES:
     dance-single:
     Copied from:
     Challenge:
     9:
     0.756,0.789,1.000,0.520,0.800,516.000,199.000,78.000,109.000,10.000:
1000
0100
0000
0110
0000
0000
0100
0100
0000
1010
0000
0000
,
0001
0010
0000
0101
0000
0000
1000
0100
0010
0001
0000
0000
,
0010
0100
0000
0011
0000
0000
1000
0100
0010
0001
0000
0000
,
0001
0010
0100
1000
0000
0000
0001
0010
0000
1100
0000
0000
,
0100
0010
0000
0101
0000
0000
1000
0100
0010
0001
0000
0000
,
0001
0010
0000
1100
0000
0000
0100
0100
0000
0110
0000
0000
,
0001
0010
0100
1000
0000
0000
0010
0100
0000
0101
0000
0000
,
0001
0010
0000
1100
0000
0000
1000
0100
0010
0001
0000
0000
,
0100
0100
0000
1001
0000
0000
1000
0100
0010
0001
0000
0000
,
0001
0010
0100
1000
0000
0000
0001
0010
0000
1100
0000
0000
,
0001
0010
0000
0110
0000
0000
1000
0100
0010
0001
0000
0000
,
1MM2
0000
0000
MM10
0000
0000
1MM0
0000
0000
M1M3
0000
0110
,
1001
0000
1010
0M0M
0000
0100
0000
0000
1100
00MM
0000
0010
,
0000
0000
1010
0000
1001
0110
0101
0000
1010
0M0M
0000
0100
,
0000
0000
0011
MM00
0000
0001
0000
0000
0101
1001
0000
1100
,
1100
0000
0110
M00M
0000
1000
0000
0000
0101
M0M0
0000
0010
,
0000
0000
0101
1001
0101
0011
0101
0000
1010
0M0M
0000
1000
,
0000
0000
1001
0MM0
0000
0010
0000
0000
0101
1100
0000
1001
,
0000
0000
0101
1100
0000
1001
1001
0000
0011
MM00
0000
0100
,
0000
0000
0101
1100
0000
1001
1001
1010
0101
M0M0
0000
0010
,
0000
0000
1100
00MM
0000
1000
0000
0000
0011
0101
0000
1001
,
1001
0000
1100
1010
0000
1001
1001
0000
1010
0000
0000
0011
,
0000
0000
0000
0000
1100
0000
1110
0000
0000
0000
0011
0000
0000
0000
0000
2MM2
0000
0000
3000
0000
0000
0000
0000
0000
,
0000
0010
0000
1000
0000
0103
1010
2010
,
0000
0100
0000
00M0
0000
0M01
0000
0100
,
3000
0011
0110
0021
0000
M100
0000
0M00
,
0000
1030
0000
0201
0000
1000
0310
1002
,
0010
0100
0000
1M00
0000
M010
0000
0100
,
0003
0101
1010
2001
0000
010M
0000
001M
,
0000
0001
0000
0100
0000
3001
0110
0201
,
0010
1000
0000
0010
0000
000M
0000
M001
,
0000
0001
0310
2010
0000
010M
0000
0M10
,
3000
0011
0000
0021
0000
1030
0101
0201
,
0010
100M
0000
M001
0000
100M
0000
M001
,
0000
0301
1010
0021
0000
100M
0000
010M
,
0000
100M
0000
0031
0000
0101
0110
0011
,
0010
0101
0000
0012
0000
0100
0003
1200
,
0000
0010
0000
1000
0310
1001
0000
0101
,
0000
0210
0300
2001
0000
3010
0110
1002
,
0100
0010
0000
0100
0003
0001
0000
1200
,
0000
0010
0000
0301
0101
101M
0000
01M1
,
0000
11M0
0000
0M11
0000
101M
1100
1002
,
0100
0010
0000
1000
0003
0100
0000
1010
,
0000
0101
0110
2010
0000
0010
0000
0100
,
3000
1010
0000
0021
0000
1000
0130
1002
,
0100
0010
0000
0103
0000
1001
0000
1100
,
0000
0011
1100
1200
0000
0010
0000
0001
,
0300
1010
0000
1100
0000
1000
0101
2002
,
3113
2002
3003
M00M
0000
0010
0000
1000
,
0000
0001
1100
0202
1313
2200
3300
MM00
,
0000
0001
0000
0010
0000
1000
0101
0022
,
1133
0202
0303
0M0M
0000
0010
0000
0101
,
0000
10M0
0100
0220
1331
2002
3003
0MM0
,
0000
0000
0000
1MMM
0000
0000
0000
0000
0000
MM1M
0000
0000
0000
0000
0000
MMM1
0000
0000
1100
0000
0000
1000
0100
0000
,
0010
0000
0001
0100
0000
0000
0000
0000
0000
1M1M
0000
0000
0000
0000
0000
11MM
0000
0000
0000
0000
0000
M1M1
0000
0000
,
0000
0000
0000
1MMM
0000
0000
0101
0000
0000
0001
0010
0000
0100
0000
1000
0100
0000
0000
0000
0000
0000
0M10
0000
0000
,
0000
0000
0000
00M1
0000
0000
0000
0000
0000
100M
0100
0000
0010
0000
0001
M000
0000
0000
0000
0000
0000
0001
0010
0000
,
0100
0000
1000
0000
0100
0000
0000
0000
0000
0000
0000
0000
0000
0000
0000
1010
0000
0000
0000
0000
0000
1001
0000
0000
,
0000
0000
0000
0110
0000
0000
0101
0000
0000
1000
0100
0000
0020
0000
0002
0000
0000
0000
0000
0000
0000
0000
0000
0000
,
0000
0000
0000
0000
0000
0000
0033
0000
0000
2000
0200
0000
,
0300
0001
0000
0000
0020
0000
0030
0001
0000
0000
0002
0000
,
0003
0000
0000
0000
0100
0000
3000
0000
0000
0010
0000
0000
0000
0000
0000
0000
2020
0000
0000
0000
0000
0000
0000
0000
3000
0000
0000
0000
0100
0000
0000
0000
0000
0000
0000
0000
0000
0000
0000
0000
0002
0000
0000
0000
0000
0000
0000
0000
,
0003
0000
0000
0000
0130
0000
0000
0000
0000
0000
0000
0000
0000
0000
0000
0000
0202
0000
0000
0000
0000
0000
0000
0000
0000
0000
0000
0000
0303
0000
0000
0000
0000
0100
0000
0000
0000
0000
0000
0000
2200
0000
0000
0000
0000
0010
0000
0000
,
0300
0001
0000
0000
0020
0000
0030
0001
0000
0000
0201
0000
,
0300
0000
0000
0000
0010
0000
3000
0000
0000
1000
0000
0000
0000
0000
0000
0000
0102
0000
0000
0000
0000
0000
0000
0000
0000
0000
0000
0000
1000
0000
0000
0000
0000
0000
0000
0000
0000
0000
0000
0000
0010
0000
0000
0000
0000
0000
0000
0000
,
0000
0000
0000
0000
0100
0000
0000
0000
0000
0000
0000
0000
0000
0000
0000
0000
1000
0000
0000
0000
0000
0000
0000
0000
0000
0000
0000
0000
0103
0000
0000
0000
0000
0100
0000
0000
0000
0000
0000
0000
0201
0000
0000
0000
0000
0010
0000
0000
,
0000
1000
0000
0000
0001
0000
0000
1000
0000
0000
0001
0000
,
0000
0000
0000
0000
1301
0000
0000
0000
0000
0001
0000
0000
0000
0000
0000
0000
0021
0000
0000
0000
0000
0100
0000
0000
0000
0000
0000
0000
1000
0000
0000
0000
0000
0000
0000
0000
0M00
0000
0000
0000
1000
0000
0000
0000
0000
0000
0000
0000
,
0M00
0000
0000
0000
1030
0000
0000
0000
0000
0000
0000
0000
0000
0000
0000
0000
2002
0000
0000
0000
0000
0000
0000
0000
0000
0000
0000
0000
0003
0000
3000
0000
0000
0110
0000
0000
0000
0000
0000
0000
2001
0000
0000
0000
0000
0110
0000
0000
,
0000
0010
0000
0000
0100
0000
0000
0001
0000
0000
0010
0000
,
0000
0000
0000
0000
0100
0000
3000
0000
0000
0010
0000
0000
0000
0000
0000
0000
M102
0000
0000
0000
0000
0000
0000
0000
0000
0000
0000
0000
0M10
0000
0000
0000
0000
0000
0000
0000
0000
0000
0000
0000
01M0
0000
0000
0000
0000
0000
0000
0000
,
0000
0000
0000
0000
1M00
0000
0000
0000
0000
0000
0000
0000
0000
0000
0000
0000
0M13
0000
0000
0000
0000
0000
0000
0000
0000
0000
0000
0000
0011
0000
0000
0000
0000
2100
0000
0000
0000
0000
0000
0000
0001
0000
0000
0000
0000
0000
0000
0000
,
0000
0100
0000
0000
0001
0000
0000
0100
0000
0000
0001
0000
,
3000
0000
0000
0000
0001
0000
0000
0000
0000
1200
0000
0000
0000
0000
0000
0000
0010
0000
0000
0000
0000
1000
0000
0000
0000
0000
0000
0000
0001
0000
0000
0000
0000
0000
0000
0000
0000
0000
0000
0000
0010
0000
0000
0000
0000
0000
0000
0000
,
0300
0000
0000
0000
1001
0000
0000
0000
0000
0000
0000
0000
2001
0000
0000
0000
0011
0000
0000
0000
0000
0000
0000
0000
3000
0000
0000
0000
0101
0000
0000
0000
0000
0012
0000
0000
0000
0000
0000
0000
1000
0000
0000
0000
0000
0000
0000
0000
,
0000
0000
0010
0000
0000
0000
0000
0000
0010
0000
0000
0000
0000
0000
1000
0000
0000
0000
0000
0000
0100
0003
0000
0000
,
0000
0000
0000
0000
1001
0000
0000
0000
0000
0010
0000
0000
0000
0000
0000
0000
0001
0000
0000
0000
0001
1200
0000
0000
0000
0000
0000
0000
0010
0000
0000
0000
0010
0000
0000
0000
0000
0000
0000
0000
0001
0000
0000
0000
0001
0000
0000
0000
,
0000
0000
0000
0000
1000
0000
0000
0000
1000
0000
0000
0000
0000
0000
0000
0000
0001
0000
0000
0000
0001
0000
0000
0000
0000
0000
0000
0300
0011
0000
0000
0000
0000
2010
0000
0000
0000
0000
0000
0000
0100
0000
0000
0000
0100
0000
0000
0000
,
0000
00M0
0000
0000
0010
0010
0000
0000
0M00
0000
0100
0100
,
3000
0000
0000
0000
0011
0000
0000
0000
0000
0210
0000
0000
0000
0000
0000
0000
M001
0000
0000
0000
0000
0010
0000
0000
0000
0000
0000
0000
M001
0000
0000
0000
0000
0000
0000
0000
0000
0000
0000
0000
100M
0000
0000
0000
0000
0000
0000
0000
,
0300
0000
0000
0000
0100
0000
0000
0000
0000
0000
0000
0000
2100
0000
0000
0000
0010
0000
0000
0000
0000
0000
0000
0000
3000
0000
0000
0000
0101
0000
0000
0000
0000
0002
0000
0000
0000
0000
0000
0000
1000
0000
0000
0000
0000
0000
0000
0000
,
0000
0100
0000
0000
1000
0000
0000
0100
0000
0000
0010
0000
,
0003
0000
0000
0000
0101
0000
0000
0000
0000
2010
0000
0000
0000
0000
0000
3000
0101
0000
0000
0000
0000
2010
0000
0000
0000
0000
0000
0000
0002
0000
0000
0000
0003
0000
0000
0000
0000
0000
0000
0000
0020
0000
0000
0000
0030
0000
0000
0000
,
0000
0000
0000
0000
0200
0000
0000
0000
0300
0000
0000
0000
0000
0000
0000
0000
0020
0000
0000
0000
0030
0000
0000
0000
0000
0000
0000
0000
0002
0000
3000
0000
0003
0110
0000
0000
1001
0000
0000
0000
0000
0000
0000
0000
0000
0000
0000
0000
,
1000
0100
0010
0001
0000
0000
1010
0000
0000
0101
0000
0000
,
0011
0000
0000
0001
0010
0100
1000
0000
0000
0011
0000
0000
,
1010
0000
0000
1000
0100
0010
0001
0000
0000
0001
0010
0100
,
1000
0100
0001
0010
,
1100
0000
0000
1000
0100
0010
0001
0000
0000
0110
0000
0000
,
1010
0000
0000
1100
0000
0000
0001
0000
0000
0001
0010
0100
,
1000
1010
1010
1001
,
0101
0000
0000
0001
0010
0100
1000
0000
0000
0110
0000
0000
,
1000
000M
0000
1000
0100
0010
0001
M000
0000
0001
0010
0100
,
1000
0MM0
0000
0101
0000
0000
1010
0M0M
0000
1001
0000
0000
,
1001
0MM0
0000
1000
0100
0010
0001
0MM0
0000
1001
0000
0000
;

//---------------dance-single - Copied from Copied f----------------
#NOTES:
     dance-single:
     Copied from Copied f:
     Hard:
     7:
     0.630,0.756,1.000,0.373,0.706,451.000,155.000,56.000,9.000,0.000:
1001
1001
0000
0100
0000
0000
0010
0000
0000
1000
0000
0000
,
0010
0000
0000
1100
0000
0000
1000
0100
0010
0001
0000
0000
,
0100
0000
0000
0110
0000
0000
0001
0010
0100
1000
0000
0000
,
0001
0010
0100
1000
0000
0000
0001
0000
0000
1000
0000
0000
,
0010
0000
0000
0101
0000
0000
1000
0100
0010
0001
0000
0000
,
0010
0100
0001
1010
,
1000
0100
0010
0001
0000
0000
0010
0000
0000
0100
0000
0000
,
0010
0000
0000
1100
0000
0000
1000
0100
0010
0001
0000
0000
,
0100
0000
0000
1010
0000
0000
1000
0100
0010
0001
0000
0000
,
1000
0100
0010
0001
0000
0000
0001
0000
0000
0100
0000
0000
,
0010
0000
0000
0101
0000
0000
1000
0100
0010
0001
0000
0000
,
0200
0000
0000
0020
0000
0000
0000
0000
0000
0330
0000
0110
,
1001
0000
1010
0000
0000
0101
0000
0000
0110
0000
0000
1010
,
0000
0000
1010
1010
1010
0110
0110
0000
0110
0000
0000
0101
,
0000
0000
1010
0000
0000
0011
0000
0000
1001
1001
1001
0000
,
0000
0000
0011
0000
0000
0101
0000
0000
1100
0000
0000
0110
,
0000
0000
0101
0101
0101
0101
0101
0000
1010
0000
0000
1100
,
0000
0000
1001
0000
0000
0011
0000
0000
0101
0101
0000
0101
,
0000
0000
0110
0000
0000
0110
0000
0000
0011
0000
0000
0110
,
0000
0000
1100
1100
1100
1100
1100
0000
0101
0000
0000
0110
,
0000
0000
1100
0000
0000
1001
0000
0000
0011
0011
0011
0000
,
0000
0000
1100
0000
0000
1100
0000
0000
1010
0000
0000
0110
,
0000
0000
0000
0000
1001
0000
1001
0000
0000
0000
1001
0000
0000
0000
0000
1002
0000
0000
0000
0000
0000
0000
0000
0000
,
0000
0200
0000
0000
0000
0303
1010
0020
,
0000
0200
0000
0000
0000
0000
0000
0000
,
0330
0000
0110
0020
0000
0200
0000
0000
,
0000
0330
1001
0220
0030
0300
1100
0002
,
0000
0200
0000
0000
0000
0000
0000
0000
,
0303
0101
1001
2000
0000
0020
0000
0000
,
0000
0000
0000
0000
0000
3030
0110
0101
,
0010
1000
0000
0110
0000
0110
0000
0101
,
0000
0101
1010
1010
0000
0100
0000
0010
,
0000
0011
0000
0101
0000
0100
0101
0101
,
0010
1010
0000
0011
0000
1010
0000
0101
,
0000
0101
0011
0011
0000
1010
0000
0101
,
0000
1100
0000
0011
0000
0101
0101
0011
,
0011
0110
0000
0022
0000
0030
0003
2200
,
0000
0000
0000
3000
0310
0110
0000
0101
,
0000
0210
0300
2020
0030
3000
0101
2002
,
0000
0000
0000
3000
0003
0001
0000
2200
,
0000
0000
3000
1300
0110
1010
0000
0110
,
0000
1100
0000
0110
0000
1010
1010
2002
,
0000
0000
0000
3000
1003
0101
0000
0011
,
0000
0110
1010
2020
0000
0000
0000
0030
,
3000
0011
0000
0022
0000
0003
0030
2002
,
0000
0000
3000
0103
0000
1001
0000
1010
,
0000
1100
1100
2200
0000
0000
0000
3000
,
0300
1010
0000
0110
0000
1100
1001
1001
,
0000
0110
0000
0000
0000
0010
0000
0100
,
0000
0001
0100
0101
0000
1100
0000
0000
,
0000
0100
0000
0010
0000
1000
0101
1100
,
0000
0110
0000
0000
0000
0010
0000
0100
,
0000
1000
0110
0110
0000
1001
0000
0M00
,
0000
0000
0000
0M01
0000
0000
0000
0000
0000
01M0
0000
0000
0000
0000
0000
M001
0000
0000
0001
0000
0000
1000
0100
0000
,
0010
0000
0001
0000
0000
0000
0000
0000
0000
100M
0000
0000
0000
0000
0000
010M
0000
0000
0000
0000
0000
00M1
0000
0000
,
0000
0000
0000
1000
0000
0000
0001
0000
0000
0001
0010
0000
0100
0000
1000
0000
0000
0000
0000
0000
0000
1M00
0000
0000
,
0000
0000
0000
10M0
0000
0000
0000
0000
0000
1000
0100
0000
0010
0000
0001
0000
0000
0000
0000
0000
0000
1000
0100
0000
,
0010
0000
0001
0000
0000
0000
0000
0000
0000
0000
0000
0000
0000
0000
0000
0010
0000
0000
0000
0000
0000
1000
0000
0000
,
0000
0000
0000
0010
0000
0000
0100
0000
0000
1000
0100
0000
0010
0000
0002
0000
0000
0000
0000
0000
0000
0000
0000
0000
,
0000
0000
0000
0000
0000
0000
0003
0000
0000
2001
0100
0000
,
0000
0001
0000
0000
0100
0000
0000
0001
0000
0000
0100
0000
,
0000
0000
0000
0000
0100
0000
3000
0000
0000
0010
0000
0000
0000
0000
0000
0000
1020
0000
0000
0000
0000
0000
0000
0000
0000
0000
0000
0000
0100
0000
0000
0000
0000
0000
0000
0000
0000
0000
0000
0000
1000
0000
0000
0000
0000
0000
0000
0000
,
0000
0000
0000
0000
0130
0000
0000
0000
0000
0000
0000
0000
0000
0000
0000
0000
0201
0000
0000
0000
0000
0000
0000
0000
0000
0000
0000
0000
0300
0000
0000
0000
0000
0100
0000
0000
0000
0000
0000
0000
2000
0000
0000
0000
0000
0010
0000
0000
,
0000
0001
0000
0000
0010
0000
0000
0001
0000
0000
0010
0000
,
0000
0000
0000
0000
0001
0000
3000
0000
0000
0010
0000
0000
0000
0000
0000
0000
0102
0000
0000
0000
0000
0000
0000
0000
0000
0000
0000
0000
1000
0000
0000
0000
0000
0000
0000
0000
0000
0000
0000
0000
0100
0000
0000
0000
0000
0000
0000
0000
,
0000
0000
0000
0000
1000
0000
0000
0000
0000
0000
0000
0000
0000
0000
0000
0000
0100
0000
0000
0000
0000
0000
0000
0000
0000
0000
0000
0000
0103
0000
0000
0000
0000
0010
0000
0000
0000
0000
0000
0000
0200
0000
0000
0000
0000
0010
0000
0000
,
0000
0000
0000
0000
0001
0000
0000
0010
0000
0000
0001
0000
,
0000
0000
0000
0000
0310
0000
0000
0000
0000
0001
0000
0000
0000
0000
0000
0000
0020
0000
0000
0000
0000
0100
0000
0000
0000
0000
0000
0000
1000
0000
0000
0000
0000
0000
0000
0000
0000
0000
0000
0000
0100
0000
0000
0000
0000
0000
0000
0000
,
0000
0000
0000
0000
1030
0000
0000
0000
0000
0000
0000
0000
0000
0000
0000
0000
1001
0000
0000
0000
0000
0000
0000
0000
0000
0000
0000
0000
0000
0000
0000
0000
0000
0100
0000
0000
0000
0000
0000
0000
2000
0000
0000
0000
0000
0100
0000
0000
,
0000
0010
0000
0000
0001
0000
0000
0010
0000
0000
0010
0000
,
0000
0000
0000
0000
0010
0000
3000
0000
0000
0010
0000
0000
0000
0000
0000
0000
0102
0000
0000
0000
0000
0000
0000
0000
0000
0000
0000
0000
0010
0000
0000
0000
0000
0000
0000
0000
0000
0000
0000
0000
0100
0000
0000
0000
0000
0000
0000
0000
,
0000
0000
0000
0000
0100
0000
0000
0000
0000
0000
0000
0000
0000
0000
0000
0000
0103
0000
0000
0000
0000
0000
0000
0000
0000
0000
0000
0000
0001
0000
0000
0000
0000
2000
0000
0000
0000
0000
0000
0000
0010
0000
0000
0000
0000
0000
0000
0000
,
0000
0100
0000
0000
0001
0000
0000
0010
0000
0000
0100
0000
,
3000
0000
0000
0000
0100
0000
0000
0000
0000
0200
0000
0000
0000
0000
0000
0000
0010
0000
0000
0000
0000
0010
0000
0000
0000
0000
0000
0000
0001
0000
0000
0000
0000
0000
0000
0000
0000
0000
0000
0000
0010
0000
0000
0000
0000
0000
0000
0000
,
0300
0000
0000
0000
1001
0000
0000
0000
0000
0000
0000
0000
2001
0000
0000
0000
0001
0000
0000
0000
0000
0000
0000
0000
3000
0000
0000
0000
0001
0000
0000
0000
0000
0002
0000
0000
0000
0000
0000
0000
1000
0000
0000
0000
0000
0000
0000
0000
,
0000
0000
0100
0000
0000
0000
0000
0000
0010
0000
0000
0000
0000
0000
1000
0000
0000
0000
0000
0000
0100
0003
0000
0000
,
0000
0000
0000
0000
0010
0000
0000
0000
0000
0100
0000
0000
0000
0000
0000
0000
0001
0000
0000
0000
0000
0200
0000
0000
0000
0000
0000
0000
0010
0000
0000
0000
0000
0000
0000
0000
0000
0000
0000
0000
0001
0000
0000
0000
0000
0000
0000
0000
,
0000
0000
0000
0000
0010
0000
0000
0000
0000
0000
0000
0000
0000
0000
0000
0000
0001
0000
0000
0000
0000
0000
0000
0000
0000
0000
0000
0300
0010
0000
0000
0000
0000
2000
0000
0000
0000
0000
0000
0000
0100
0000
0000
0000
0000
0000
0000
0000
,
0000
0010
0000
0000
0010
0000
0000
0010
0000
0000
0100
0000
,
3000
0000
0000
0000
0100
0000
0000
0000
0000
0200
0000
0000
0000
0000
0000
0000
0001
0000
0000
0000
0000
0010
0000
0000
0000
0000
0000
0000
0001
0000
0000
0000
0000
0000
0000
0000
0000
0000
0000
0000
0001
0000
0000
0000
0000
0000
0000
0000
,
0300
0000
0000
0000
0010
0000
0000
0000
0000
0000
0000
0000
0200
0000
0000
0000
0010
0000
0000
0000
0000
0000
0000
0000
0300
0000
0000
0000
0011
0000
0000
0000
0000
0002
0000
0000
0000
0000
0000
0000
0010
0000
0000
0000
0000
0000
0000
0000
,
0000
0010
0000
0000
1000
0000
0000
1000
0000
0000
1000
0000
,
0003
0000
0000
0000
0100
0000
0000
0000
0000
2000
0000
0000
0000
0000
0000
3000
0100
0000
0000
0000
0000
2000
0000
0000
0000
0000
0000
0000
0001
0000
0000
0000
0000
0000
0000
0000
0000
0000
0000
0000
0100
0000
0000
0000
0000
0000
0000
0000
,
0000
0000
0000
0000
0010
0000
0000
0000
0000
0000
0000
0000
0000
0000
0000
0000
0100
0000
0000
0000
0000
0000
0000
0000
0000
0000
0000
0000
0001
0000
3000
0000
0000
0010
0000
0000
1000
0000
0000
0000
0000
0000
0000
0000
0000
0000
0000
0000
,
1000
0100
0010
0001
0000
0000
0010
0000
0000
0100
0000
0000
,
1000
0000
0000
1000
0100
0010
0001
0000
0000
0001
0000
0000
,
0010
0000
0000
1000
0100
0010
0001
0000
0000
1000
0100
0010
,
0001
0100
1000
0001
,
0010
0000
0000
1000
0100
0010
0001
0000
0000
0100
0000
0000
,
0010
0000
0000
1000
0000
0000
0100
0000
0000
1000
0100
0010
,
0001
1000
0010
1000
,
0001
0000
0000
1000
0100
0010
0001
0000
0000
0010
0000
0000
,
0100
0000
0000
1000
0100
0010
0001
0000
0000
1000
0100
0010
,
0001
0100
0010
1000
,
0001
0000
0000
1000
0100
0010
0001
0000
0000
0000
0000
0000
;

//---------------dance-single - Copied from Copied f----------------
#NOTES:
     dance-single:
     Copied from Copied f:
     Medium:
     3:
     0.365,0.504,0.420,0.293,0.250,276.000,63.000,44.000,0.000,0.000:
1001
1001
0000
0010
0000
0000
0010
0000
0000
1000
0000
0000
,
0010
0000
0000
1000
0000
0000
1001
1001
0000
0100
0000
0000
,
0010
0000
0000
0100
0000
0000
1001
1001
0000
0100
0000
0000
,
0110
0110
0000
0001
0000
0000
0001
0000
0000
0010
0000
0000
,
0010
0000
0000
0010
0000
0000
0110
0110
0000
1000
0000
0000
,
0010
1000
1000
0010
,
0011
0011
0000
0100
0000
0000
0100
0000
0000
0100
0000
0000
,
0010
0000
0000
0010
0000
0000
0110
0110
0000
0010
0000
0000
,
0010
0000
0000
0010
0000
0000
1001
1001
0000
0000
0000
0000
,
1001
1001
0000
0100
0000
0000
0010
0000
0000
0100
0000
0000
,
0010
0000
0000
0100
0000
0000
0110
0110
0000
0000
0000
0000
,
0220
0000
0000
0000
0000
0000
0000
0000
0000
0330
0000
0010
,
0000
0000
1000
0000
0000
0001
0000
0000
0100
0000
0000
0010
,
0000
0000
1000
1000
1000
0000
0000
0000
0010
0000
0000
0100
,
0000
0000
0010
0000
0000
0001
0000
0000
0001
0001
0001
0000
,
0000
0000
0100
0000
0000
1000
0000
0000
0100
0000
0000
0010
,
0000
0000
0100
0100
0100
0000
0000
0000
0010
0000
0000
1000
,
0000
0000
0001
0000
0000
0010
0000
0000
0100
0000
0000
0100
,
0000
0000
0010
0000
0000
0100
0000
0000
0001
0000
0000
1000
,
0000
0000
0100
0100
0100
0000
0000
0000
0001
0000
0000
0100
,
0000
0000
1000
0000
0000
1000
0000
0000
0010
0010
0010
0000
,
0000
0000
0100
0000
0000
1000
0000
0000
0010
0000
0000
0100
,
0000
0000
0000
0110
0000
2000
0000
0000
,
0000
0010
0000
0000
0000
3000
0010
0020
,
0000
1000
0000
0000
0000
0000
0000
0000
,
0030
0000
0100
0200
0000
0000
0000
0000
,
0000
0300
0010
0020
0000
0030
0001
0002
,
0000
0100
0000
0000
0000
0000
0000
0000
,
0003
0000
1000
2000
0000
0010
0000
0000
,
0000
0000
0000
0000
0000
3000
0000
0200
,
0000
0010
0000
0000
0000
0000
0000
0000
,
0000
0300
0010
0020
0000
0001
0000
0000
,
0030
0000
0000
2000
0000
0000
3000
0002
,
0000
0000
0000
0000
,
0003
0000
0010
0020
0000
0000
0000
0000
,
0000
0000
0000
0000
0000
0030
0000
1001
,
1001
0000
0000
0021
0000
0030
0000
1200
,
0000
0000
0000
0000
0300
0010
0000
0100
,
0000
0110
0000
2010
0000
3000
0000
0002
,
0000
0000
0000
0000
0000
0000
0003
0200
,
0000
0000
0000
0300
0000
0010
0000
0100
,
0000
1000
0000
0100
0000
0010
0001
0002
,
0000
0000
0000
0003
0000
0100
0000
0010
,
0000
0100
1000
2000
0000
0000
0000
0000
,
0000
0000
3000
0020
0000
0000
0030
0002
,
0000
0000
0000
0003
0000
1000
0000
0010
,
0000
1000
0100
0200
0000
0000
0000
0000
,
0300
0010
0000
0100
0000
0010
0000
1001
,
0000
1001
0000
0100
0000
0010
0000
0100
,
0000
0001
0010
0001
0000
1000
0000
1000
,
0000
0100
0000
0010
0000
0100
0000
1010
,
0000
1010
0000
0100
0000
0010
0000
0100
,
0000
0001
0000
0101
0000
0101
0000
0010
,
0000
0001
0000
0100
0000
1001
0000
1000
,
1000
0010
0000
0100
0000
0001
0000
1000
,
0000
0010
0000
0001
0001
0000
0000
1000
,
0000
0101
0000
0010
0010
0100
0000
1000
,
1000
0010
0000
0100
0000
0010
0000
1000
,
0000
0000
0000
1000
0000
0000
0000
0000
0000
1000
0000
0000
1000
0000
0201
0000
0000
0000
0000
0000
0000
0000
0000
0000
,
0000
0000
0000
2000
,
0000
0000
0000
0000
0000
0000
0000
0300
0000
0000
0000
0000
,
0000
0000
0000
0000
0020
0000
0000
0000
0000
3000
0000
0000
,
0000
0000
0000
0000
0200
0000
0030
0000
0000
0000
2000
0000
,
0000
0000
0000
0300
,
0000
0000
0000
0000
0002
0000
0000
0000
0000
0000
0000
0000
,
0000
0000
0000
3000
0000
0000
0000
0000
0000
0000
0200
0000
,
0000
0000
0000
0003
,
0000
0000
0000
0000
0020
0000
0000
0000
0000
0300
0000
0000
,
0000
0000
0000
0000
0002
0000
0030
0000
0000
0000
2000
0000
,
0000
0000
0000
0003
,
0000
0000
0000
0000
0002
0000
0000
0000
0000
0000
0000
0000
,
3000
0000
0000
0000
0000
0000
0000
0000
0000
0000
0020
0000
,
0000
0000
0003
0000
,
0000
0200
0000
0000
,
0000
0030
0000
0000
2000
0300
0000
0000
0000
0000
0002
0000
,
0000
0000
0000
0000
3000
0000
0000
0000
0000
0000
0000
0000
,
0000
0000
0000
0000
0200
0000
0000
0000
0000
0000
0003
0000
,
0000
0000
0000
0000
0000
0000
0000
0000
0000
0000
2000
0000
,
0000
0000
0300
0000
,
0000
0000
0000
0200
0000
0000
0000
0000
0000
0000
3000
0000
,
0000
0020
0300
0002
,
0000
0000
0000
0000
0000
0000
0000
0030
0000
0000
0000
0000
,
0000
2000
0000
0000
,
0000
0000
0003
0000
0000
3000
1001
0000
,
1001
0100
0010
0100
,
1001
0000
0000
1001
1001
0000
0100
0000
0000
0010
0000
0000
,
1001
0000
0000
1001
1001
0000
0000
0000
0000
1001
1001
0000
,
0010
0100
0010
0100
,
1001
0000
0000
1001
1001
0000
0001
0000
0000
0001
0000
0000
,
0001
0000
0000
0001
0000
0000
0001
0000
0000
1001
1001
0000
,
1000
1000
1000
1000
,
1000
0000
0000
1001
1001
0000
0100
0000
0000
0100
0000
0000
,
1001
0000
0000
1001
1001
0000
0000
0000
0000
1001
1001
0000
,
0010
0010
0010
0010
,
1001
0000
0000
1001
1001
0000
1001
0000
0000
0000
0000
0000
;

//---------------dance-single - Copied from Copied f----------------
#NOTES:
     dance-single:
     Copied from Copied f:
     Easy:
     2:
     0.228,0.345,0.093,0.193,0.150,196.000,14.000,29.000,0.000,0.000:
0100
0010
0010
1000
,
1000
1000
0000
0100
,
0100
0100
0000
0010
,
0000
0100
0100
0100
,
0010
0010
0000
0010
,
0010
0100
0100
0010
,
0000
1000
1000
1000
,
0001
0001
0000
0100
,
0100
0100
0010
0000
,
0010
1000
1000
1000
,
0001
0001
0000
0001
,
0010
0000
0000
0000
0000
0000
0000
0000
0000
0000
0000
0100
,
0000
0000
1000
0000
0000
0100
0000
0000
1000
0000
0000
0100
,
0000
0000
0000
0000
0000
0000
0000
0000
0001
0000
0000
0010
,
0000
0000
0001
0000
0000
0010
0000
0000
0000
0000
0000
0000
,
0000
0000
0100
0000
0000
0010
0000
0000
0100
0000
0000
0010
,
0000
0000
0000
0000
0000
0000
0000
0000
1000
0000
0000
0100
,
0000
0000
1000
0000
0000
0100
0000
0000
1000
0000
0000
0100
,
0000
0000
0010
0000
0000
0001
0000
0000
0010
0000
0000
0001
,
0000
0000
0000
0000
0000
0000
0000
0000
0001
0000
0000
0010
,
0000
0000
0001
0000
0000
0010
0000
0000
0000
0000
0000
0000
,
0000
0000
0100
0000
0000
1000
0000
0000
0100
0000
0000
1000
,
0000
0000
0000
0000
0000
1000
0000
0000
,
0000
0010
0000
0000
0000
0000
0000
0010
,
0000
0200
0000
0000
0000
0000
0300
0000
,
0000
0000
0000
0200
0000
0000
0000
0000
,
0000
0300
0000
0010
0000
0000
0000
0020
,
0000
0000
0030
0000
,
0000
0000
0000
0200
0000
0000
0000
0000
,
0300
0000
0000
0000
0000
0000
0000
0020
,
0000
0000
0030
0000
,
0000
0000
0000
0002
0000
0000
0000
0000
,
0003
0000
0000
1000
0000
0000
0000
0020
,
0000
0000
0030
0000
,
0000
0000
0000
0200
0000
0000
0000
0000
,
0300
0000
0000
0000
0000
0000
0000
0100
,
0000
0100
0000
0010
0000
0000
0000
0200
,
0000
0000
0300
0000
,
0000
0010
0000
0010
0000
0000
0000
0200
,
0000
0000
0000
0000
0300
0000
0000
0020
,
0000
0000
0000
0030
0000
0000
0000
0000
,
0000
0100
0000
0100
0000
0100
0000
0200
,
0000
0000
0300
0000
0000
0000
0000
0010
,
0000
0010
0000
0020
0000
0000
0000
0000
,
0030
0000
0000
0001
0000
0000
0000
0002
,
0000
0000
0000
0003
0000
0000
0000
0100
,
0000
0100
0000
0200
0000
0000
0000
0000
,
0300
0010
0000
0010
0000
0010
0000
0110
,
0000
0000
0000
0010
0000
0010
0000
0110
,
0000
0000
0000
0000
0000
1000
0000
1000
,
0000
1000
0000
0011
0000
0010
0000
0010
,
0000
0010
0000
0100
0000
0100
0000
0100
,
0000
0001
0000
0001
0000
0001
0000
1000
,
0000
1000
0000
1000
0000
1001
0000
0000
,
0000
0010
0000
0010
0000
0010
0000
1000
,
0000
1001
0000
0000
0000
0000
0000
0100
,
0000
0110
0000
0000
0000
0110
0000
0000
,
0000
0100
0000
0100
0000
0100
0000
0010
,
0000
0010
0000
0010
0000
0000
0000
0000
,
0000
0000
0000
0020
,
0000
0000
0000
0030
,
0000
0000
0000
0000
0002
0000
0000
0000
0000
0000
0000
0000
,
0003
0000
0000
0000
0100
0000
0000
0000
0000
0000
0020
0000
,
0000
0000
0000
0000
,
0030
0000
0000
0000
0200
0000
0000
0000
0000
0000
0000
0000
,
0000
0000
0000
0000
0000
0300
0000
0000
0000
0000
2000
0000
,
0000
0000
0000
0000
,
3000
0000
0000
0000
0010
0000
0000
0000
0000
0000
0000
0000
,
0000
0000
0000
0000
0001
0000
0000
0000
0000
0000
0200
0000
,
0000
0000
0000
0000
,
0300
0000
0000
0000
0020
0000
0000
0000
0000
0000
0000
0000
,
0000
0000
0000
0030
0000
0000
0000
0000
0000
0000
0200
0000
,
0000
0000
0000
0300
,
0000
0020
0000
0000
,
0030
0000
0000
0000
0100
0000
0000
0000
0000
0000
0020
0000
,
0000
0000
0000
0000
,
0030
0000
0000
0000
2000
0000
0000
0000
0000
0000
0000
0000
,
0000
0000
0000
0000
3000
0000
0000
0000
0000
0000
0020
0000
,
0000
0000
0000
0000
0000
0000
0000
0000
0000
0000
0000
0030
,
0000
0100
0000
0000
,
0000
1000
0000
0002
,
0000
0000
0000
0000
,
0003
0200
0000
0000
,
0000
0000
0300
1001
,
1000
1000
1000
0100
,
0001
0000
1000
0100
,
0001
1001
0000
1001
,
0001
0001
0010
0100
,
1001
0000
0100
0010
,
0001
0001
0001
0000
,
0010
0100
1000
1000
,
1000
0000
0100
0100
,
0010
1001
0000
1001
,
0100
0010
0010
0010
,
0100
1001
0000
0000
;
